<?xml version="1.0" standalone="no"?>
<!DOCTYPE svg PUBLIC "-//W3C//DTD SVG 1.1//EN" "http://www.w3.org/Graphics/SVG/1.1/DTD/svg11.dtd" >
<svg xmlns="http://www.w3.org/2000/svg">
  <metadata>Created by iconfont</metadata>
  <defs>
  <font id="iconfont" horiz-adv-x="1024">
    <font-face
      font-family="iconfont"
      font-weight="400"
      font-stretch="normal"
      units-per-em="1024"
      ascent="896"
      descent="-128"
    />
      <missing-glyph />
      
      <glyph glyph-name="guanbi1" unicode="&#60146;" d="M576 384l277.333333-277.333333-64-64-277.333333 277.333333L234.666667 42.666667 170.666667 106.666667l277.333333 277.333333L170.666667 661.333333 234.666667 725.333333l277.333333-277.333333L789.333333 725.333333 853.333333 661.333333 576 384z"  horiz-adv-x="1024" />
      
      <glyph glyph-name="huabanfuben" unicode="&#58995;" d="M834.88 687.893333H189.12c-21.333333 0-37.973333-20.266667-37.973333-45.226666S168.106667 597.333333 189.12 597.333333h645.76c21.333333 0 37.973333 20.266667 37.973333 45.333334s-16.96 45.226667-37.973333 45.226666zM834.88 426.666667H455.04a42.666667 42.666667 0 0 1 0-85.333334h379.84a42.666667 42.666667 0 0 1 0 85.333334zM834.88 170.666667H189.12c-21.333333 0-37.973333-20.266667-37.973333-45.333334s16.96-45.226667 37.973333-45.226666h645.76c21.333333 0 37.973333 20.266667 37.973333 45.226666S855.893333 170.666667 834.88 170.666667zM314.56 260.586667V504.32L151.146667 382.4l163.413333-121.813333z"  horiz-adv-x="1024" />
      
      <glyph glyph-name="a-44tubiao-61" unicode="&#59030;" d="M494.893663-28.10144A429.207777 429.207777 0 1 0 922.301827 401.106337a429.207777 429.207777 0 0 0-427.408164-429.207777z m0 790.930054A361.722277 361.722277 0 1 1 854.816327 401.106337 361.947229 361.947229 0 0 1 494.893663 762.828614zM989.787326-127.979979a32.617991 32.617991 0 0 0-23.844876 9.897873L764.835661 82.574779A33.74275 33.74275 0 0 0 812.750366 131.164339l200.881837-202.456499a33.967701 33.967701 0 0 0 0-47.689753 33.067895 33.067895 0 0 0-23.844877-8.998066z"  horiz-adv-x="1058" />
      
      <glyph glyph-name="mn_fasong_fill" unicode="&#58882;" d="M923.663 803.4300000000001c-15.534 7.768-31.069 7.768-38.836 0L108.104 415.07c-15.534 0-23.302-15.535-23.302-31.069s7.768-31.069 15.535-31.069L286.75 236.423c15.535-7.768 31.07-7.768 46.604 7.767l411.663 372.827 15.534-7.767-372.827-396.13c-7.767-7.766-7.767-15.534-7.767-23.3v-170.88c0-15.534 7.767-31.069 23.302-38.836 15.534-7.767 31.069 0 38.836 7.767l93.207 93.207 186.413-124.276c7.767-7.767 15.535-7.767 23.302-7.767h15.534c15.535 7.767 23.302 15.535 23.302 31.07l155.345 776.722c0 23.302 0 38.836-15.535 46.603z"  horiz-adv-x="1024" />
      
      <glyph glyph-name="fujian" unicode="&#58957;" d="M527.104 800.128a213.333333 213.333333 0 1 0 301.653333-301.696l-392.192-392.192a128 128 0 1 0-180.992 180.992l362.026667 362.069333a42.666667 42.666667 0 1 0 60.330667-60.373333l-362.026667-362.026667a42.666667 42.666667 0 1 1 60.330667-60.330666l392.192 392.192a128 128 0 1 1-180.992 181.034666l-392.234667-392.234666a213.333333 213.333333 0 1 1 301.696-301.653334l362.069333 362.026667a42.666667 42.666667 0 0 0 60.330667-60.373333l-362.026667-362.026667a298.666667 298.666667 0 1 0-422.4 422.4l392.234667 392.192z"  horiz-adv-x="1024" />
      
      <glyph glyph-name="mima" unicode="&#58891;" d="M866 512h-34v64c0 43-8.5 84.9-25.3 124.3-16.1 38.1-39.3 72.3-68.7 101.7-29.4 29.4-63.6 52.5-101.7 68.7C596.9 887.5 555 896 512 896s-84.9-8.5-124.3-25.3C349.6 854.6 315.4 831.4 286 802s-52.5-63.6-68.7-101.7C200.5 660.9 192 619 192 576v-64h-34c-51.8 0-94-42.2-94-94v-452c0-51.8 42.2-94 94-94h708c51.8 0 94 42.2 94 94V418c0 51.8-42.2 94-94 94z m-614 64c0 69.1 27.1 134.3 76.4 183.6S442.9 836 512 836s134.3-27.1 183.6-76.4C744.9 710.3 772 645.1 772 576v-64H252v64z m648-610c0-18.7-15.3-34-34-34H158c-18.7 0-34 15.3-34 34V418c0 18.7 15.3 34 34 34h708c18.7 0 34-15.3 34-34v-452zM512 288c-16.5 0-30-13.5-30-30v-132c0-16.5 13.5-30 30-30s30 13.5 30 30V258c0 16.5-13.5 30-30 30z"  horiz-adv-x="1024" />
      
      <glyph glyph-name="zhanghao" unicode="&#59000;" d="M512 332.8c-155.136 0-281.6 126.464-281.6 281.6S356.864 896 512 896s281.6-126.464 281.6-281.6-126.464-281.6-281.6-281.6z m0 512c-126.976 0-230.4-103.424-230.4-230.4s103.424-230.4 230.4-230.4 230.4 103.424 230.4 230.4-103.424 230.4-230.4 230.4zM512-128H102.4c-14.336 0-25.6 11.264-25.6 25.6 0 183.296 59.904 277.504 110.592 324.608C244.224 274.944 302.08 281.088 304.64 281.6c13.824 1.536 26.624-8.704 28.16-23.04 1.536-13.824-8.704-26.624-22.528-28.16-7.68-1.024-172.032-24.064-181.76-307.2H512c14.336 0 25.6-11.264 25.6-25.6s-11.264-25.6-25.6-25.6zM927.232-128h-409.6c-14.336 0-25.6 11.264-25.6 25.6s11.264 25.6 25.6 25.6H901.12c-9.728 286.208-179.712 307.2-181.248 307.2-13.824 1.536-24.064 13.824-23.04 28.16s13.824 24.064 28.16 23.04c2.56 0 60.416-6.656 117.248-59.392 50.688-46.592 110.592-140.8 110.592-324.608 0-14.336-11.776-25.6-25.6-25.6z"  horiz-adv-x="1024" />
      
      <glyph glyph-name="copy" unicode="&#58966;" d="M256-32H128C73.6-32 32 9.6 32 64V896H704c54.4 0 96-41.6 96-96v-64c0-19.2-12.8-32-32-32s-32 12.8-32 32V800c0 19.2-12.8 32-32 32H96v-768c0-19.2 12.8-32 32-32h128c19.2 0 32-12.8 32-32s-12.8-32-32-32zM784 512H416c-19.2 0-32 12.8-32 32s12.8 32 32 32h368c19.2 0 32-12.8 32-32s-12.8-32-32-32z m0-192H416c-19.2 0-32 12.8-32 32s12.8 32 32 32h368c19.2 0 32-12.8 32-32s-12.8-32-32-32zM608 128H416c-19.199 0-32 12.8-32 32s12.801 32 32 32h192.002c19.2 0 32-12.8 32-32s-12.8-32-32-32zM992-128H320c-54.4 0-96 41.6-96 96V768h672c54.4 0 96-41.6 96-96v-800zM288 704v-736c0-19.2 12.8-32 32-32h608V672c0 19.2-12.8 32-32 32H288z"  horiz-adv-x="1024" />
      
      <glyph glyph-name="guanbi" unicode="&#58948;" d="M512 871.424A487.424 487.424 0 1 1 999.424 384 488.0384 488.0384 0 0 1 512 871.424z m0-912.7936A425.984 425.984 0 0 0 86.4256 384v4.096A425.3696 425.3696 0 1 0 512-41.3696zM707.584 577.7408a31.3344 31.3344 0 0 1-43.8272 2.048L512 427.8272l-151.7568 151.7568a30.5152 30.5152 0 0 1-20.48 8.192 31.1296 31.1296 0 0 1-23.1424-52.0192l151.552-151.7568-151.7568-151.552a31.1296 31.1296 0 0 1 43.8272-44.2368L512 340.1728l151.552-151.7568a31.3344 31.3344 0 0 1 42.1888 0 30.9248 30.9248 0 0 1 10.0352 20.48 30.3104 30.3104 0 0 1-7.9872 22.3232L555.8272 384l151.7568 151.552a30.9248 30.9248 0 0 1 0 42.1888z"  horiz-adv-x="1024" />
      
      <glyph glyph-name="caidan1" unicode="&#58952;" d="M974.40064 184.32c27.136 0 49.6-22.272 49.6-49.408a49.984 49.984 0 0 0-49.6-50.368H255.55264a49.984 49.984 0 0 0-49.6 50.368c0 27.136 22.4 49.472 49.6 49.472h718.848zM63.68064 768a63.68 63.68 0 0 0 0-127.296A63.68 63.68 0 0 0 0.00064 704.384C0.00064 738.944 28.99264 768 63.61664 768z m191.872-121.152a50.176 50.176 0 0 0-49.6 49.92c0 27.136 22.4 49.856 49.6 49.856h718.848c27.136 0 49.6-22.72 49.6-49.92 0-27.136-22.464-49.92-49.6-49.92H255.55264z m0-299.392a50.176 50.176 0 0 0-49.6 49.92c0 27.136 22.4 49.856 49.6 49.856h718.848c27.136 0 49.6-22.72 49.6-49.92 0-27.136-22.464-49.92-49.6-49.92H255.55264zM63.61664 478.72a63.744 63.744 0 0 0 0-127.36c-34.56 0-63.616 29.056-63.616 63.68 0 35.584 28.992 63.68 63.616 63.68z m0-288.32a63.744 63.744 0 0 0 0-127.296 63.68 63.68 0 0 0-63.616 63.68c0 34.56 28.992 63.616 63.616 63.616z"  horiz-adv-x="1024" />
      
      <glyph glyph-name="icon-eye-open" unicode="&#58892;" d="M518.826667 132.266667c-98.190222 0-177.777778 79.587556-177.777778 177.777777s79.587556 177.777778 177.777778 177.777778 177.777778-79.587556 177.777777-177.777778-79.587556-177.777778-177.777777-177.777777z m0 99.555555a78.222222 78.222222 0 1 1 0 156.444445 78.222222 78.222222 0 0 1 0-156.444445zM522.467556 81.479111c124.529778 0 249.287111 73.244444 374.357333 224.199111-109.155556 151.054222-233.244444 224.241778-374.357333 224.241778-141.255111 0-269.909333-73.329778-387.569778-224.284444 133.575111-150.798222 262.869333-224.156444 387.569778-224.156445z m373.063111 380.344889c36.750222-37.432889 71.68-81.038222 104.803555-130.744889l19.911111-29.880889-22.087111-28.330666C848.284444 80.682667 689.706667-18.062222 522.467556-18.062222c-166.684444 0-329.742222 98.176-489.571556 289.664L8.149333 301.226667l22.570667 31.331555c44.743111 62.122667 91.818667 114.673778 141.169778 157.482667l-84.337778 89.827555a35.555556 35.555556 0 1 0 51.84 48.668445l88.789333-94.577778c51.342222 35.726222 104.96 61.525333 160.768 77.226667l-43.079111 101.674666a35.555556 35.555556 0 1 0 65.479111 27.733334l48.739556-115.000889a499.527111 499.527111 0 0 0 62.378667 3.868444c36.508444 0 72.007111-3.882667 106.481777-11.619555l56.945778 125.297778a35.555556 35.555556 0 0 0 64.739556-29.44l-53.105778-116.821334c51.043556-19.911111 99.612444-48.938667 145.621333-86.897778l103.936 103.950223a35.555556 35.555556 0 0 0 50.289778-50.289778l-101.831111-101.831111z"  horiz-adv-x="1024" />
      
      <glyph glyph-name="icon-eye-close" unicode="&#58893;" d="M928.312889 628.522667C792.078222 459.093333 655.957333 376.888889 519.651556 376.888889c-136.832 0-278.584889 82.773333-425.031112 252.913778a49.777778 49.777778 0 1 1-75.463111-64.938667C182.826667 374.712889 349.596444 277.333333 519.637333 277.333333c170.609778 0 332.785778 97.934222 486.257778 288.810667a49.777778 49.777778 0 0 1-77.582222 62.378667zM162.730667 426.552889l-94.819556-109.710222a35.555556 35.555556 0 1 1 53.802667-46.506667l94.819555 109.710222a35.555556 35.555556 0 0 1-53.802666 46.506667zM354.247111 297.813333l-37.930667-151.708444a35.555556 35.555556 0 0 1 68.992-17.251556l37.930667 151.708445a35.555556 35.555556 0 0 1-68.992 17.251555zM629.575111 291.612444l53.333333-151.694222a35.555556 35.555556 0 0 1 67.072 23.580445l-53.333333 151.694222a35.555556 35.555556 0 0 1-67.072-23.580445zM823.111111 420.835556l109.710222-109.724445a35.555556 35.555556 0 0 1 50.289778 50.289778l-109.710222 109.710222a35.555556 35.555556 0 0 1-50.289778-50.289778z"  horiz-adv-x="1024" />
      
      <glyph glyph-name="fanhui" unicode="&#58883;" d="M398.700049 380.74384L752.123404 734.167195c21.687952 21.687952 21.687952 56.850799 0 78.53875-21.687952 21.687952-56.850799 21.687952-78.53875 0L280.892947 420.013215c-21.687952-21.687952-21.687952-56.850799 0-78.538751L673.584654-51.218266c21.687952-21.687952 56.850799-21.687952 78.53875 0 21.687952 21.687952 21.687952 56.850799 0 78.538751L398.700049 380.74384z"  horiz-adv-x="1024" />
      
      <glyph glyph-name="wenjianjia" unicode="&#58880;" d="M855.04 510.976q19.456-2.048 38.912-10.24t33.792-23.04 21.504-37.376 2.048-54.272q-2.048-8.192-8.192-40.448t-14.336-74.24-18.432-86.528-19.456-76.288q-5.12-18.432-14.848-37.888t-25.088-35.328-36.864-26.112-51.2-10.24l-567.296 0q-21.504 0-44.544 9.216t-42.496 26.112-31.744 40.96-12.288 53.76l0 439.296q0 62.464 33.792 97.792t95.232 35.328l503.808 0q22.528 0 46.592-8.704t43.52-24.064 31.744-35.84 12.288-44.032l0-11.264-53.248 0q-40.96 0-95.744 0.512t-116.736 0.512-115.712 0.512-92.672 0.512l-47.104 0q-26.624 0-41.472-16.896t-23.04-44.544q-8.192-29.696-18.432-62.976t-18.432-61.952q-10.24-33.792-20.48-65.536-2.048-8.192-2.048-13.312 0-17.408 11.776-29.184t29.184-11.776q31.744 0 43.008 39.936l54.272 198.656q133.12-1.024 243.712-1.024l286.72 0z"  horiz-adv-x="1024" />
      
      <glyph glyph-name="31paishexuanzhong" unicode="&#58881;" d="M508.532527 481.378841c-68.293409 0-123.827213-55.196113-123.827213-123.056664 0-67.861574 55.533804-123.088386 123.827213-123.088386 68.26271 0 123.82619 55.226812 123.82619 123.088386C632.358717 426.182728 576.795237 481.378841 508.532527 481.378841zM934.809143 139.173992c-0.215918-0.584308-0.584308-1.140986-0.89437-1.663896l0 4.807493L933.914774 591.183689c0 28.67611-23.452131 52.005444-52.266387 52.005444l-156.432819 0-1.940189 0-0.89437 1.725294-20.463054 40.679491c-2.341325 5.208629-23.267936 49.710169-51.7752 49.710169L372.28647 735.304088c-29.153994 0-50.633191-47.213301-51.52756-49.232285l-20.709671-41.157375-0.89437-1.725294-1.940189 0-156.463518 0c-28.813233 0-52.267411-23.329335-52.267411-52.005444l0-506.464937c0-28.692482 23.454178-52.021817 52.267411-52.021817l740.898247 0c28.814256 0 52.266387 23.329335 52.266387 52.021817l0 52.236712c0.525979 0.73985 1.139963 1.417279 1.602498 2.218528L934.809143 139.173992zM508.532527 180.285319c-98.680487 0-178.99058 79.881328-178.99058 178.036859 0 98.154507 80.310094 178.004113 178.99058 178.004113 98.679463 0 178.960905-79.849606 178.960905-178.004113C687.493431 260.166647 607.21199 180.285319 508.532527 180.285319zM782.475689 488.666828c-22.960944 0-41.668005 18.706037-41.668005 41.681308 0 23.00597 18.707061 41.697681 41.668005 41.697681 22.989597 0 41.695634-18.691711 41.695634-41.697681C824.171324 507.372865 805.465287 488.666828 782.475689 488.666828zM872.802928 140.00594 872.864326 140.00594 872.864326 140.375354Z"  horiz-adv-x="1024" />
      
      <glyph glyph-name="xiangyou1" unicode="&#59253;" d="M761.055557 363.871953c0.512619 0.992555 1.343475 1.823411 1.792447 2.848649 8.800538 18.304636 5.919204 40.703346-9.664077 55.424808L399.935923 756.256202c-19.264507 18.208305-49.631179 17.344765-67.872168-1.888778-18.208305-19.264507-17.375729-49.631179 1.888778-67.872168l316.960409-299.839269L335.199677 82.368284c-19.071845-18.399247-19.648112-48.767639-1.247144-67.872168 9.407768-9.791372 21.984142-14.688778 34.560516-14.688778 12.000108 0 24.000215 4.479398 33.311652 13.439914l350.048434 337.375729c0.672598 0.672598 0.927187 1.599785 1.599785 2.303346 0.512619 0.479935 1.056202 0.832576 1.567101 1.343475C757.759656 357.120172 759.199462 360.608735 761.055557 363.871953z"  horiz-adv-x="1024" />
      
      <glyph glyph-name="zengjia" unicode="&#58946;" d="M863.29 734.455C769.409 827.92 644.559 879.304 511.654 879.304c-132.766 0-257.756-51.523-351.636-144.988C66.137 640.851 14.336 516.557 14.336 384.207S66.138 127.563 160.018 33.96c93.881-93.465 218.87-144.988 351.636-144.988S769.41-59.505 863.29 33.96c94.019 93.603 145.821 217.898 145.682 350.247 0.139 132.35-51.662 256.644-145.682 350.247M760.381 348.656H547.204v-213.177c0-19.582-15.971-35.552-35.552-35.552S476.1 115.758 476.1 135.479V348.656H263.063c-19.582 0-35.552 15.971-35.552 35.552s15.971 35.552 35.552 35.552H476.24V632.937c0 19.582 15.971 35.552 35.552 35.552 19.582 0 35.552-15.971 35.552-35.552V419.76h213.177c19.582 0 35.552-15.971 35.552-35.552-0.139-19.582-15.971-35.552-35.692-35.552m0 0z"  horiz-adv-x="1024" />
      
      <glyph glyph-name="xiangce" unicode="&#59326;" d="M883.4 732.8H136.7c-40.5 0-72.8-24.9-72.8-55.6v-583.9c0-31.9 33.3-57.9 74-57.9h751.2c35.5-3.4 67.2 22.4 71 57.9V677.2c0 30.7-34.5 55.6-77.1 55.6h0.4zM358.9 602.6c40.7 0.1 73.9-32.8 74-73.5 0.1-40.7-32.8-73.9-73.5-74s-73.9 32.8-74 73.5v0.2c0 40.7 32.9 73.6 73.5 73.8z m457-483.8H209.5c-23.5 0-28.2 13.6-12.4 29.8l130.1 136.9c16.7 16.5 42.7 19 62.2 5.9l95.8-67.6c19.2-13.3 45.3-9.8 60.4 8l221.9 268.9c14.6 17.6 29.1 13.6 32.4-8.5l50.7-334c2.9-18.7-10-36.2-28.7-39.1-1.9-0.3-4-0.4-6-0.3z"  horiz-adv-x="1024" />
      
      <glyph glyph-name="yinpin" unicode="&#59179;" d="M512 896c282.773333 0 512-229.226667 512-512S794.773333-128 512-128 0 101.226667 0 384 229.226667 896 512 896z m0-64C264.576 832 64 631.424 64 384s200.576-448 448-448 448 200.576 448 448S759.424 832 512 832z m0-213.333333a32 32 0 0 0 32-32v-405.333334a32 32 0 0 0-64 0v405.333334A32 32 0 0 0 512 618.666667z m-128-85.333334a32 32 0 0 0 32-32v-234.666666a32 32 0 0 0-64 0v234.666666A32 32 0 0 0 384 533.333333z m256 0a32 32 0 0 0 32-32v-234.666666a32 32 0 0 0-64 0v234.666666A32 32 0 0 0 640 533.333333z m-384-85.333333a32 32 0 0 0 32-32v-64a32 32 0 0 0-64 0v64A32 32 0 0 0 256 448z m512 0a32 32 0 0 0 32-32v-64a32 32 0 0 0-64 0v64A32 32 0 0 0 768 448z"  horiz-adv-x="1024" />
      
      <glyph glyph-name="biaoqing" unicode="&#58908;" d="M512-128a512 512 0 1 0 512 512 512 512 0 0 0-512-512z m0 955.733333a443.733333 443.733333 0 1 1 443.733333-443.733333A443.733333 443.733333 0 0 1 512 827.733333zM324.266667 503.466667m-51.2 0a51.2 51.2 0 1 1 102.4 0 51.2 51.2 0 1 1-102.4 0ZM699.733333 503.466667m-51.2 0a51.2 51.2 0 1 1 102.4 0 51.2 51.2 0 1 1-102.4 0ZM512 110.933333a273.066667 273.066667 0 0 0-252.928 157.013334 34.133333 34.133333 0 0 0 62.464 27.306666A204.8 204.8 0 0 1 512 179.2a204.8 204.8 0 0 1 190.464 116.053333 34.133333 34.133333 0 0 0 62.464-27.306666A273.066667 273.066667 0 0 0 512 110.933333z"  horiz-adv-x="1024" />
      
      <glyph glyph-name="jianpan" unicode="&#58977;" d="M512 832A448 448 0 1 1 960 384 448.5 448.5 0 0 1 512 832z m0-832a384 384 0 1 0 384 384 384.5 384.5 0 0 0-384-384zM320 496m-48 0a48 48 0 1 1 96 0 48 48 0 1 1-96 0ZM448 448A48 48 0 1 1 400 496a48 48 0 0 1 48-48zM576 544a48 48 0 1 1 48-48 48 48 0 0 1-48 48zM704 544a48 48 0 1 1 48-48 48 48 0 0 1-48 48zM320 368m-48 0a48 48 0 1 1 96 0 48 48 0 1 1-96 0ZM448 320a48 48 0 1 1-48 48 48 48 0 0 1 48-48zM576 256H448a48 48 0 0 1 0-96h128a48 48 0 1 1 0 96zM576 416a48 48 0 1 1 48-48 48 48 0 0 1-48 48zM704 416a48 48 0 1 1 48-48 48 48 0 0 1-48 48z"  horiz-adv-x="1024" />
      
    </font>
</defs>
</svg>
